Ru-Board.club
← Вернуться в раздел «Цифровое изображение»

» Конвертация формата видео

Автор: hk911
Дата сообщения: 10.01.2011 19:07
Как при помощи Xilisoft video converter или VirtualDub можно перекодировать фильм из 16:9 в 4:3 без потерь и обрезки кадра ?
Фильм имеет разрешение 576Х320. После конвертации качество не должно пострадать.
При просмотре любым плеером на компьютере объекты не должны растягиваться или сплющиваться.
Убедительная просьба, пожалуйста, не предлагайте мне pinnacle studio, adobe premier, Nero, Gordian knot и прочее.
Заранее большое спасибо!
Автор: tamalex
Дата сообщения: 10.01.2011 20:57

Цитата:
без потерь и обрезки кадра

А вот это никак не сделаете - попробуйте прямоугольник засунуть в квадрат, что получится?
Автор: SergFalkon
Дата сообщения: 11.01.2011 07:00
И в дополнение - помимо невозможности уместить кадр 16:9 в 4:3 без обрезки или добавления черных полос, это еще сопряжено с перекодированием. Что по-определению дает доп. потери.
Автор: hk911
Дата сообщения: 17.01.2011 08:38
Ага, всем спасибо за ответы.
Автор: Alexey87
Дата сообщения: 10.05.2015 08:58
подскажите, пожалуйста, шаги действий в решении следующего вопроса:
работаю с форматами mp4, mpg, avi, vob - переворачиваю, обрезаю, накладываю аудио и т.д.
использую программы MPEG Video Wizard, Virtual Dub, Avidemux
конвертирую отредактированные материалы в формат flv с помощью Freemake Video Converter или MPEG Video Wizard для последующей вставки их в плеер JW FLV Player на сайте
зачастую при конвертации mp4 выходной файл получается больше исходного в 2-4 раза
в связи с чем нуждаюсь в подробных алгоритмах по работе с форматами mp4, mpg, avi, vob, flv или в другом плеере
какие есть варианты решения моего вопроса?
Автор: Mavrikii
Дата сообщения: 10.05.2015 09:14
Alexey87

Цитата:
зачастую при конвертации mp4 выходной файл получается больше исходного в 2-4 раза

flv это контейнер, не нужно в него перекодировать.

JW (а точнее флеш) поддерживает и mp4, есть лишь требования к кодекам и битрейтам
http://support.jwplayer.com/customer/portal/articles/1403635-media-format-reference


Цитата:
MP4 videos using the H.264 video codec and the AAC audio codec. MP4 is of high quality and can be played in all browsers and devices. It is today's video format of choice.
Автор: Nik143
Дата сообщения: 10.05.2015 09:40
Проблемы начинаются изначально. Видео должно быть авторским т.е. снятым самостоятельно (или созданным-анимация). Тогда не будет проблем связанных с конвертированием видео различных форматов, разрешений, битрейтов. (что к тому же приводит к потере качества). Отпадёт необходимость применения в работе такого количества программ. А так, да, один и тот же финальный видеоклип но экспортированный поочередно в flv и в mp4 будет иметь существенно разный объем. К тому же для получения визуально равного качества видео придется выставлять (и там и там) разный битрейт. Решение твоего вопроса - принять как факт - видео flv и mp4 будут иметь разный объем.
Автор: mozgabyte
Дата сообщения: 18.05.2015 23:47
Друзья, кто хорошо разбирается в конвертации видео - дайте пожалуйста совет.

Есть видео снятое на Canon EOS 6D, ролики весят нереально много.. Нужно максимально эффективно пожать видео без существенной потери в качестве картинки.
Задача: получить видео в HD разрешении, в формате MP4 с кодеком h264, звук AAC моно с битрейтом 128кбпс, можно даже 64 или что-то среднее между ними. В общем нужно уместить ~25 часов видео на 2xDVD5 - реально ли это?

Вот данные из MediaInfo - http://pste.ws/1765963. Скажите, примерно какой наименьший объем можно получить из исходного файла, если применить оптимальные параметры по сжатию.

Спасибо!
Автор: krserv
Дата сообщения: 19.05.2015 13:05
подскажите пжс по этому вопросу:

подскажите как правильно сделать настройки на формат MPEG 4 - по умолчанию MPEG 1 стоит?

Или лучше использовать другой формат?
Мне нужно подруге помочь у нее BBK DV 515SI - у меня видеофайлы AVI и еще в каком-то MPEG формате.
Как мне лучше их конвертировать, чтобы они 100% прочитались на этом плеере и с самым лучшим качеством изображения?
Смотрю сейчас инструкцию на плеер, она там запутается с настройками, как сделать само просто, чтобы вставила и смотрела.

Собираюсь использовать Format Factory

http://forum.ru-board.com/topic.cgi?forum=5&topic=27805&start=160

Я понимаю, что расширения файлов AVI; MPG - это только названия контейнеров, что там внутри не знаю, поэтому лучше сразу конвертировать их в тот формат и с теми настройками, которые поддерживает этот DVD Player:

Форматы
• Воспроизведение цифрового видео в форматах DVD-Video, Super VCD и VCD
• Поддержка стандарта MPEG-4: воспроизведение форматов DivX 3.11, DivX 4, DivX 5, DivX Pro, XviD
• Воспроизведение музыкальных дисков в форматах CD (CD-DA) и HDCD
• Воспроизведение музыкальных файлов, сжатых в форматах МР3, WMA и OGG Vorbis
• Воспроизведение караоке-дисков в форматах DVD-Video, VCD, CD+G
• Воспроизведение фотоальбомов, записанных в цифровых форматах Kodak Picture CD и JPEG
Аудио
• АудиоЦАП 192 кГц/24 бит

Во что конвертировать имеющиеся у меня файлы, чтобы меня подруга расцеловала и была ласковой, ласковой?

Добавлено:
вот посмотрел свойства файлов, которые у меня есть:

MPEG 2:

General
Complete name : E:\0-In-out\0 Tmp\English\Spotlight\In\3\Module 6.mpg
Format : MPEG-PS
File size : 319 MiB
Duration : 7mn 1s
Overall bit rate : 6 349 Kbps

Video
ID : 224 (0xE0)
Format : MPEG Video
Format version : Version 2
Format profile : Main@Main
Format settings, BVOP : Yes
Format settings, Matrix : Default
Format settings, GOP : M=3, N=12
Duration : 7mn 1s
Bit rate mode : Variable
Bit rate : 5 998 Kbps
Nominal bit rate : 9 608 Kbps
Width : 720 pixels
Height : 576 pixels
Display aspect ratio : 4:3
Frame rate : 25.000 fps
Standard : PAL
Color space : YUV
Chroma subsampling : 4:2:0
Bit depth : 8 bits
Scan type : Interlaced
Scan order : Top Field First
Compression mode : Lossy
Bits/(Pixel*Frame) : 0.579
Stream size : 301 MiB (94%)

Audio
ID : 189 (0xBD)-128 (0x80)
Format : AC-3
Format/Info : Audio Coding 3
Mode extension : CM (complete main)
Muxing mode : DVD-Video
Duration : 7mn 1s
Bit rate mode : Constant
Bit rate : 224 Kbps
Channel(s) : 2 channels
Channel positions : Front: L R
Sampling rate : 48.0 KHz
Bit depth : 16 bits
Compression mode : Lossy
Stream size : 11.2 MiB (4%)

И c расширением AVI:

General
Complete name : E:\0-In-out\0 Tmp\English\Spotlight\In\3\Module 2.avi
Format : AVI
Format/Info : Audio Video Interleave
File size : 92.2 MiB
Duration : 6mn 4s
Overall bit rate : 2 123 Kbps
Movie name : Module 2
Writing application : VirtualDubMod 1.5.10.2 (build 2540/release)
Copyright : Olu6ka

Video
ID : 0
Format : MPEG-4 Visual
Format profile : Advanced Simple@L5
Format settings, BVOP : 2
Format settings, QPel : No
Format settings, GMC : No warppoints
Format settings, Matrix : Default (MPEG)
Muxing mode : Packed bitstream
Codec ID : XVID
Codec ID/Hint : XviD
Duration : 6mn 4s
Bit rate : 1 985 Kbps
Width : 640 pixels
Height : 480 pixels
Display aspect ratio : 4:3
Frame rate : 25.000 fps
Color space : YUV
Chroma subsampling : 4:2:0
Bit depth : 8 bits
Scan type : Progressive
Compression mode : Lossy
Bits/(Pixel*Frame) : 0.258
Stream size : 86.2 MiB (94%)
Writing library : XviD 1.2.1 (UTC 2008-12-04)

Audio
ID : 1
Format : MPEG Audio
Format version : Version 1
Format profile : Layer 3
Mode : Joint stereo
Mode extension : MS Stereo
Codec ID : 55
Codec ID/Hint : MP3
Duration : 6mn 4s
Bit rate mode : Constant
Bit rate : 128 Kbps
Channel(s) : 2 channels
Sampling rate : 48.0 KHz
Compression mode : Lossy
Stream size : 5.56 MiB (6%)
Alignment : Split accross interleaves
Interleave, duration : 40 ms (1.00 video frame)
Interleave, preload duration : 500 ms


Так в какой формат их все преобразовать, чтобы они на DVD диске были в одном формате, по умолчанию что есть в Format Factory - AVI; MPG - кнопки?



Добавлено:
попробовал по умолчанию в Format Factory MPG - он делает MPEG 1, либо нужно настроить на MPEG 2 или делать в AVI по умолчанию вот такие файлы получаются:

MPEG 1

General
Complete name : E:\0-In-out\0 Tmp\English\Spotlight\Out\MPG\Module 1.mpg
Format : MPEG-PS
File size : 64.0 MiB
Duration : 6mn 21s
Overall bit rate : 1 407 Kbps

Video
ID : 224 (0xE0)
Format : MPEG Video
Format version : Version 1
Format settings, BVOP : No
Format settings, Matrix : Default
Duration : 6mn 21s
Bit rate mode : Constant
Bit rate : 1 150 Kbps
Width : 352 pixels
Height : 288 pixels
Display aspect ratio : 4:3
Frame rate : 25.000 fps
Standard : PAL
Color space : YUV
Bit depth : 8 bits
Scan type : Progressive
Compression mode : Lossy
Bits/(Pixel*Frame) : 0.454
Stream size : 52.6 MiB (82%)

Audio
ID : 192 (0xC0)
Format : MPEG Audio
Format version : Version 1
Format profile : Layer 2
Duration : 6mn 21s
Bit rate mode : Constant
Bit rate : 224 Kbps
Channel(s) : 2 channels
Sampling rate : 44.1 KHz
Compression mode : Lossy
Stream size : 10.2 MiB (16%)

AVI:

General
Complete name : E:\0-In-out\0 Tmp\English\Spotlight\Out\AVI\Module 6.avi
Format : AVI
Format/Info : Audio Video Interleave
File size : 198 MiB
Duration : 7mn 1s
Overall bit rate : 3 947 Kbps
Writing application : MEncoder SVN-r33883(20110719-gcc4.5.2)
Writing library : MPlayer

Video
ID : 0
Format : MPEG-4 Visual
Format profile : Advanced Simple@L5
Format settings, BVOP : 2
Format settings, QPel : No
Format settings, GMC : No warppoints
Format settings, Matrix : Default (H.263)
Codec ID : XVID
Codec ID/Hint : XviD
Duration : 7mn 1s
Bit rate : 3 808 Kbps
Width : 768 pixels
Height : 576 pixels
Display aspect ratio : 4:3
Frame rate : 25.000 fps
Color space : YUV
Chroma subsampling : 4:2:0
Bit depth : 8 bits
Scan type : Progressive
Compression mode : Lossy
Bits/(Pixel*Frame) : 0.344
Stream size : 191 MiB (96%)
Writing library : XviD 1.2.1 (UTC 2008-12-04)

Audio
ID : 1
Format : MPEG Audio
Format version : Version 1
Format profile : Layer 3
Mode : Joint stereo
Mode extension : MS Stereo
Codec ID : 55
Codec ID/Hint : MP3
Duration : 7mn 1s
Bit rate mode : Constant
Bit rate : 128 Kbps
Channel(s) : 2 channels
Sampling rate : 44.1 KHz
Compression mode : Lossy
Delay relative to video : 40ms
Stream size : 6.43 MiB (3%)
Alignment : Aligned on interleaves
Interleave, duration : 26 ms (0.65 video frame)
Interleave, preload duration : 522 ms

Автор: tamalex
Дата сообщения: 19.05.2015 15:56

Цитата:
у нее BBK DV 515SI


Цитата:
Собираюсь использовать Format Factory


Для старых плееров обычно конвертирую с такими настройками


Но, на всякий случай, лучше проверить, сконвертировав один фильм.
Автор: krserv
Дата сообщения: 19.05.2015 16:34
мне в соседней теме посоветовали в DVD конвертировать, чтобы заморочки не было, там десять файлов, и я согласился с этим советом. В автомате конвертирую DVDStyler
Заодно менюшка выбора будет на экране сразу с диска.
Автор: tamalex
Дата сообщения: 19.05.2015 16:44
Ну, DVD то 100% читать будет. Правда, размер больше, чем XviD.
Автор: krserv
Дата сообщения: 19.05.2015 16:52
Зато риска нет, а то подруга уезжает с этим диском, а приедит на место, а он окажется не рабочим. Вот только меня смущает сейчас сам процесс:

у меня в DVDStyler идет конвертация 10 AVI файлов, только я не пойму она идет или зависла - в строке пишет 63/138, но кажется значение не изменилось, как было 63 так и остается, нет там возможности увидеть процесс конвертации наглядно, что он выполняется?
Автор: tamalex
Дата сообщения: 19.05.2015 18:41
Ну, из 10 фильмов 1 диск DVD никак не получится.
При нормальном качестве диск DVD вмещает примерно 2 часа видео.

Вот, кстати, инструкция по DVDStyler - там даже написано, что на один диск войдет 126 минут.

Обычно пишут 1 фильм=1 диск.
Автор: krserv
Дата сообщения: 19.05.2015 18:45
я не правильно выразился - это не фильмы, а клипы. они займут только половину диска, мне уже подсказали в соседней ветке, что я не запустил сам процесс в сообщении говорится просто о свободном месте через продолжительность т.е 63 из 138 возможных.
Автор: crazylama
Дата сообщения: 30.11.2015 16:31

Цитата:
[/q]
[q]
Цитата:
зачастую при конвертации mp4 выходной файл получается больше исходного в 2-4 раза  

flv это контейнер, не нужно в него перекодировать.
 
JW (а точнее флеш) поддерживает и mp4, есть лишь требования к кодекам и битрейтам
http://tvkinoradio.ru/catalog/videomontazh_10/programmnoe-obespechenie_685/product_4615_adobe-premiere
 

Цитата:
MP4 videos using the H.264 video codec and the AAC audio codec. MP4 is of high quality and can be played in all browsers and devices. It is today's video format of choice.


Работаю с версией 107, тк уже на 109 и 110 (про 108 не знаю) наблюдаю мощные артефакты на переходах сцен. После 4-5 мотаний в зоне перехода удаётся поймать границу. У всех ли это так?

Страницы: 1

Предыдущая тема: Аморфное видео в MKV


Форум Ru-Board.club — поднят 15-09-2016 числа. Цель - сохранить наследие старого Ru-Board, истории становления российского интернета. Сделано для людей.